141.101.77.157 Download Fanney Khan (2018) V2 HDRip 720p Hindi x264 AAC 2 0 - TeamTelly Exclusive Torrent - KickassTorrents
Loading...
Loading...

Fanney Khan (2018) V2 HDRip 720p Hindi x264 AAC 2 0 - TeamTelly Exclusive

Seeders: 4
Leechers: 2
Completed: 54

Age: 3 days    Visits: 41    Category: Movies    Size: 1.1 GB

Posted by: LatestHDM    Comments: Read Comments

Info Hash: D1F5FBA68952166B9DCB83EF50731CA3E24F5268



Torrent Description







http://LatestHD.net + http://Tellytorrent.net



General
Unique ID : 59604766249056348733351606000325143062 (0x2CD775DDBD4E75D372FE6798A91AAA16)
Complete name : C:\Users\cpthecoolone\Downloads\Video\LatestHD.net - Fanney.Khan.(2018).V2.HDRip.720p.Hindi.x264.AAC.2.0.-.TeamTelly.Exclusive.mkv
Format : Matroska
Format version : Version 4
File size : 1.09 GiB
Duration : 2 h 9 min
Overall bit rate : 1 213 kb/s
Movie name : LatestHD.net - Fanney Khan (2018) 720p HDRip
Encoded date : UTC 2018-10-11 19:34:57
Writing application : mkvmerge v27.0.0 ('Metropolis') 32-bit
Writing library : libebml v1.3.6 + libmatroska v1.4.9

Video
ID : 1
Format : AVC
Format/Info : Advanced Video Codec
Format profile : [email protected]
Format settings : CABAC / 4 Ref Frames
Format settings, CABAC : Yes
Format settings, ReFrames : 4 frames
Codec ID : V_MPEG4/ISO/AVC
Duration : 2 h 9 min
Bit rate : 1 096 kb/s
Width : 1 274 pixels
Height : 720 pixels
Display aspect ratio : 16:9
Frame rate mode : Constant
Frame rate : 25.000 FPS
Color space : YUV
Chroma subsampling : 4:2:0
Bit depth : 8 bits
Scan type : Progressive
Bits/(Pixel*Frame) : 0.048
Stream size : 1 001 MiB (89%)
Title : LatestHD.net
Writing library : x264 core 148 r2643 5c65704
Encoding settings : cabac=1 / ref=1 / deblock=1:0:0 / analyse=0x3:0x3 / me=dia / subme=1 / psy=1 / psy_rd=1.00:0.00 / mixed_ref=0 / me_range=16 / chroma_me=1 / trellis=0 / 8x8dct=1 / cqm=0 / deadzone=21,11 / fast_pskip=1 / chroma_qp_offset=0 / threads=12 / lookahead_threads=2 / sliced_threads=0 / nr=0 / decimate=1 / interlaced=0 / bluray_compat=0 / constrained_intra=0 / bframes=3 / b_pyramid=2 / b_adapt=1 / b_bias=0 / direct=1 / weightb=1 / open_gop=0 / weightp=1 / keyint=250 / keyint_min=25 / scenecut=40 / intra_refresh=0 / rc=abr / mbtree=0 / bitrate=1096 / ratetol=1.0 / qcomp=0.60 / qpmin=0 / qpmax=69 / qpstep=4 / ip_ratio=1.40 / pb_ratio=1.30 / aq=1:1.00
Default : Yes
Forced : No

Audio
ID : 2
Format : AAC LC
Format/Info : Advanced Audio Codec Low Complexity
Codec ID : A_AAC-2
Duration : 2 h 9 min
Bit rate : 128 kb/s
Channel(s) : 1 channel
Channel layout : C
Sampling rate : 44.1 kHz
Frame rate : 43.066 FPS (1024 SPF)
Compression mode : Lossy
Delay relative to video : -46 ms
Stream size : 118 MiB (11%)
Title : LatestHD.net
Language : Hindi
Default : Yes
Forced : No













Sharing Widget


Download torrent
1.1 GB
Seeders: 4
Leechers: 2
Fanney Khan (2018) V2 HDRip 720p Hindi x264 AAC 2 0 - TeamTelly Exclusive

Recently Added Torrents in Movies